<svg xmlns="http://www.w3.org/2000/svg">
<defs>
<font
   id="EmbeddedFont_1"
   horiz-adv-x="2048"
   horiz-origin-x="0"
   horiz-origin-y="0"
   vert-origin-x="512"
   vert-origin-y="768"
   vert-adv-y="1024">
   <font-face
   font-family="Oswald Regular embedded"
   units-per-em="2048"
   font-weight="normal"
   font-style="normal"
   ascent="1879"
   descent="476"
   id="font-face10" />
   <missing-glyph
   horiz-adv-x="2048"
   d="M 0,0 L 2047,0 2047,2047 0,2047 0,0 Z"
   id="missing-glyph12" />
   <glyph
   unicode="ё"
   horiz-adv-x="1033"
   d="M 1151,606 L 1151,516 305,516 C 313,389 351,293 420,227 488,160 583,127 705,127 776,127 844,136 911,153 977,170 1043,196 1108,231 L 1108,57 C 1042,29 974,8 905,-7 836,-22 765,-29 694,-29 515,-29 374,23 270,127 165,231 113,372 113,549 113,732 163,878 262,986 361,1093 494,1147 662,1147 813,1147 932,1099 1020,1002 1107,905 1151,773 1151,606 Z M 967,659 C 966,760 938,841 883,901 828,961 755,991 664,991 561,991 479,962 418,904 356,846 320,764 311,659 L 967,659 Z M 756,1552 L 959,1552 959,1350 756,1350 756,1552 Z M 365,1552 L 568,1552 568,1350 365,1350 365,1552 Z"
   id="glyph14" />
   <glyph
   unicode="я"
   horiz-adv-x="953"
   d="M 378,797 C 378,742 399,698 442,667 485,636 546,620 625,620 L 873,620 873,973 625,973 C 546,973 485,958 442,927 399,896 378,853 378,797 Z M 116,0 L 458,491 C 381,508 316,540 265,586 214,631 188,702 188,797 188,905 224,986 296,1040 367,1093 475,1120 620,1120 L 1058,1120 1058,0 873,0 873,473 644,473 314,0 116,0 Z"
   id="glyph16" />
   <glyph
   unicode="ю"
   horiz-adv-x="1404"
   d="M 1098,991 C 999,991 921,953 864,876 807,799 778,693 778,559 778,425 807,320 864,243 921,166 999,127 1098,127 1196,127 1274,166 1331,243 1388,320 1417,426 1417,559 1417,692 1388,797 1331,875 1274,952 1196,991 1098,991 Z M 590,673 C 603,800 651,910 734,1005 817,1100 938,1147 1098,1147 1258,1147 1384,1095 1475,991 1566,887 1612,743 1612,559 1612,376 1566,232 1475,128 1384,23 1258,-29 1098,-29 937,-29 813,21 726,122 638,223 591,356 585,521 L 377,521 377,0 193,0 193,1120 377,1120 377,673 590,673 Z"
   id="glyph18" />
   <glyph
   unicode="э"
   horiz-adv-x="874"
   d="M 113,213 C 218,156 323,127 428,127 526,127 610,156 680,213 750,270 791,371 804,516 L 236,516 236,663 798,663 C 790,733 760,805 707,880 654,954 561,991 428,991 325,991 220,962 113,905 L 113,1077 C 218,1124 325,1147 436,1147 611,1147 748,1094 849,989 949,883 999,740 999,559 999,379 950,236 853,130 755,24 620,-29 449,-29 323,-29 211,-5 113,43 L 113,213 Z"
   id="glyph20" />
   <glyph
   unicode="ь"
   horiz-adv-x="901"
   d="M 890,332 C 890,392 868,438 825,469 781,500 717,516 633,516 L 371,516 371,147 633,147 C 717,147 781,163 825,195 868,226 890,272 890,332 Z M 186,1120 L 371,1120 371,663 641,663 C 784,663 894,636 971,582 1048,527 1086,444 1086,332 1086,220 1048,137 971,82 894,27 784,0 641,0 L 186,0 186,1120 Z"
   id="glyph22" />
   <glyph
   unicode="ы"
   horiz-adv-x="1245"
   d="M 1251,1120 L 1435,1120 1435,0 1251,0 1251,1120 Z M 890,332 C 890,392 868,438 825,469 781,500 717,516 633,516 L 371,516 371,147 633,147 C 717,147 781,163 825,195 868,226 890,272 890,332 Z M 186,1120 L 371,1120 371,663 641,663 C 784,663 894,636 971,582 1048,527 1086,444 1086,332 1086,220 1048,137 971,82 894,27 784,0 641,0 L 186,0 186,1120 Z"
   id="glyph24" />
   <glyph
   unicode="щ"
   horiz-adv-x="1642"
   d="M 1688,0 L 186,0 186,1120 371,1120 371,147 844,147 844,1120 1029,1120 1029,147 1503,147 1503,1120 1688,1120 1688,147 1835,147 1835,-283 1688,-283 1688,0 Z"
   id="glyph26" />
   <glyph
   unicode="ш"
   horiz-adv-x="1509"
   d="M 1029,147 L 1503,147 1503,1120 1688,1120 1688,0 186,0 186,1120 371,1120 371,147 844,147 844,1120 1029,1120 1029,147 Z"
   id="glyph28" />
   <glyph
   unicode="ч"
   horiz-adv-x="874"
   d="M 840,0 L 840,471 497,471 C 395,471 310,503 242,566 181,623 150,713 150,836 L 150,1120 334,1120 334,853 C 334,775 351,716 386,677 421,638 474,618 543,618 L 840,618 840,1120 1024,1120 1024,0 840,0 Z"
   id="glyph30" />
   <glyph
   unicode="ц"
   horiz-adv-x="1086"
   d="M 1153,0 L 186,0 186,1120 371,1120 371,147 968,147 968,1120 1153,1120 1153,147 1300,147 1300,-283 1153,-283 1153,0 Z"
   id="glyph32" />
   <glyph
   unicode="х"
   horiz-adv-x="1086"
   d="M 1124,1120 L 719,575 1145,0 928,0 602,440 276,0 59,0 494,586 96,1120 313,1120 610,721 907,1120 1124,1120 Z"
   id="glyph34" />
   <glyph
   unicode="ф"
   horiz-adv-x="1509"
   d="M 303,559 C 303,402 327,291 376,225 424,158 489,125 571,125 636,125 707,181 783,293 L 783,825 C 707,937 636,993 571,993 489,993 424,960 376,894 327,827 303,716 303,559 Z M 783,-426 L 783,143 C 745,80 704,36 661,10 617,-16 567,-29 512,-29 401,-29 306,23 229,126 151,229 112,372 112,555 112,738 151,883 229,989 306,1094 401,1147 512,1147 567,1147 617,1134 661,1109 704,1084 745,1040 783,977 L 783,1493 968,1493 968,977 C 1006,1040 1047,1084 1091,1109 1134,1134 1184,1147 1239,1147 1350,1147 1445,1094 1523,989 1600,883 1639,738 1639,555 1639,372 1600,229 1523,126 1445,23 1350,-29 1239,-29 1184,-29 1134,-16 1091,10 1047,36 1006,80 968,143 L 968,-426 783,-426 Z M 1448,559 C 1448,716 1424,827 1376,894 1327,960 1262,993 1180,993 1115,993 1044,937 968,825 L 968,293 C 1044,181 1115,125 1180,125 1262,125 1327,158 1376,225 1424,291 1448,402 1448,559 Z"
   id="glyph36" />
   <glyph
   unicode="у"
   horiz-adv-x="1086"
   d="M 659,-104 C 607,-237 556,-324 507,-365 458,-406 392,-426 309,-426 L 162,-426 162,-272 270,-272 C 321,-272 360,-260 388,-236 416,-212 447,-155 481,-66 L 514,18 61,1120 256,1120 606,244 956,1120 1151,1120 659,-104 Z"
   id="glyph38" />
   <glyph
   unicode="т"
   horiz-adv-x="1086"
   d="M 60,1120 L 1133,1120 1133,973 687,973 687,0 506,0 506,973 60,973 60,1120 Z"
   id="glyph40" />
   <glyph
   unicode="с"
   horiz-adv-x="874"
   d="M 999,1077 L 999,905 C 947,934 895,955 843,970 790,984 737,991 684,991 565,991 472,953 406,878 340,802 307,696 307,559 307,422 340,316 406,241 472,165 565,127 684,127 737,127 790,134 843,149 895,163 947,184 999,213 L 999,43 C 948,19 895,1 840,-11 785,-23 726,-29 664,-29 495,-29 361,24 262,130 163,236 113,379 113,559 113,742 163,885 264,990 364,1095 501,1147 676,1147 733,1147 788,1141 842,1130 896,1118 948,1100 999,1077 Z"
   id="glyph42" />
   <glyph
   unicode="р"
   horiz-adv-x="1007"
   d="M 371,168 L 371,-426 186,-426 186,1120 371,1120 371,950 C 410,1017 459,1066 518,1099 577,1131 647,1147 729,1147 865,1147 976,1093 1061,985 1146,877 1188,735 1188,559 1188,383 1146,241 1061,133 976,25 865,-29 729,-29 647,-29 577,-13 518,20 459,52 410,101 371,168 Z M 997,559 C 997,694 969,801 914,878 858,955 781,993 684,993 587,993 510,955 455,878 399,801 371,694 371,559 371,424 399,318 455,241 510,164 587,125 684,125 781,125 858,164 914,241 969,318 997,424 997,559 Z"
   id="glyph44" />
   <glyph
   unicode="п"
   horiz-adv-x="954"
   d="M 1153,1120 L 1153,0 968,0 968,973 371,973 371,0 186,0 186,1120 1153,1120 Z"
   id="glyph46" />
   <glyph
   unicode="о"
   horiz-adv-x="1033"
   d="M 627,991 C 528,991 450,953 393,876 336,799 307,693 307,559 307,425 336,320 393,243 450,166 528,127 627,127 725,127 803,166 860,243 917,320 946,426 946,559 946,692 917,797 860,875 803,952 725,991 627,991 Z M 627,1147 C 787,1147 913,1095 1004,991 1095,887 1141,743 1141,559 1141,376 1095,232 1004,128 913,23 787,-29 627,-29 466,-29 341,23 250,128 159,232 113,376 113,559 113,743 159,887 250,991 341,1095 466,1147 627,1147 Z"
   id="glyph48" />
   <glyph
   unicode="н"
   horiz-adv-x="954"
   d="M 186,1120 L 371,1120 371,663 968,663 968,1120 1153,1120 1153,0 968,0 968,516 371,516 371,0 186,0 186,1120 Z"
   id="glyph50" />
   <glyph
   unicode="м"
   horiz-adv-x="1165"
   d="M 186,1120 L 455,1120 773,370 1092,1120 1359,1120 1359,0 1174,0 1174,944 865,215 681,215 371,944 371,0 186,0 186,1120 Z"
   id="glyph52" />
   <glyph
   unicode="л"
   horiz-adv-x="1060"
   d="M 76,0 L 76,153 C 197,172 277,223 314,307 359,425 382,635 382,937 L 382,1120 1139,1120 1139,0 955,0 955,973 566,973 566,862 C 566,574 537,365 478,236 415,98 281,19 76,0 Z"
   id="glyph54" />
   <glyph
   unicode="к"
   horiz-adv-x="980"
   d="M 186,1120 L 369,1120 369,594 888,1120 1114,1120 686,687 1169,0 963,0 566,565 369,365 369,0 186,0 186,1120 Z"
   id="glyph56" />
   <glyph
   unicode="й"
   horiz-adv-x="954"
   d="M 1145,1120 L 1145,0 962,0 962,899 422,0 186,0 186,1120 369,1120 369,223 908,1120 1145,1120 Z M 353,1556 L 471,1556 C 478,1506 498,1469 531,1444 563,1419 608,1406 666,1406 723,1406 768,1418 800,1443 832,1468 852,1505 861,1556 L 979,1556 C 972,1461 943,1389 890,1341 837,1293 763,1269 666,1269 569,1269 495,1293 442,1341 389,1389 360,1461 353,1556 Z"
   id="glyph58" />
   <glyph
   unicode="и"
   horiz-adv-x="954"
   d="M 1145,1120 L 1145,0 962,0 962,899 422,0 186,0 186,1120 369,1120 369,223 908,1120 1145,1120 Z"
   id="glyph60" />
   <glyph
   unicode="з"
   horiz-adv-x="822"
   d="M 706,604 C 789,588 853,556 899,507 945,458 968,398 968,326 968,211 925,123 839,62 753,1 631,-29 472,-29 419,-29 364,-24 308,-15 251,-6 193,8 133,27 L 133,198 C 180,173 232,155 289,143 346,130 405,124 467,124 568,124 646,143 703,180 759,217 787,266 787,326 787,385 762,432 712,468 662,503 591,521 500,521 L 352,521 352,673 507,673 C 584,673 646,688 691,718 736,747 758,785 758,832 758,875 735,911 689,942 642,973 579,988 500,988 453,988 402,984 349,975 295,966 236,952 171,933 L 171,1100 C 236,1116 297,1128 354,1136 411,1144 464,1148 515,1148 646,1148 749,1122 825,1070 900,1017 938,944 938,850 938,788 918,736 878,693 838,650 781,620 706,604 Z"
   id="glyph62" />
   <glyph
   unicode="ж"
   horiz-adv-x="1721"
   d="M 831,1120 L 1014,1120 1014,594 1503,1120 1717,1120 1315,689 1775,0 1578,0 1201,566 1014,365 1014,0 831,0 831,365 644,566 267,0 70,0 530,689 128,1120 342,1120 831,594 831,1120 Z"
   id="glyph64" />
   <glyph
   unicode="е"
   horiz-adv-x="1033"
   d="M 1151,606 L 1151,516 305,516 C 313,389 351,293 420,227 488,160 583,127 705,127 776,127 844,136 911,153 977,170 1043,196 1108,231 L 1108,57 C 1042,29 974,8 905,-7 836,-22 765,-29 694,-29 515,-29 374,23 270,127 165,231 113,372 113,549 113,732 163,878 262,986 361,1093 494,1147 662,1147 813,1147 932,1099 1020,1002 1107,905 1151,773 1151,606 Z M 967,659 C 966,760 938,841 883,901 828,961 755,991 664,991 561,991 479,962 418,904 356,846 320,764 311,659 L 967,659 Z"
   id="glyph66" />
   <glyph
   unicode="д"
   horiz-adv-x="1191"
   d="M 443,147 L 977,147 977,973 590,973 590,833 C 590,558 551,348 472,201 L 443,147 Z M 176,147 C 237,174 280,215 307,272 372,413 405,625 405,908 L 405,1120 1162,1120 1162,147 1309,147 1309,-283 1162,-283 1162,0 254,0 254,-283 107,-283 107,147 176,147 Z"
   id="glyph68" />
   <glyph
   unicode="г"
   horiz-adv-x="795"
   d="M 186,0 L 186,1120 976,1120 976,973 371,973 371,0 186,0 Z"
   id="glyph70" />
   <glyph
   unicode="в"
   horiz-adv-x="901"
   d="M 370,516 L 370,147 632,147 C 716,147 780,163 824,195 868,226 890,272 890,332 890,392 868,438 824,469 780,500 716,516 632,516 L 370,516 Z M 370,973 L 370,663 612,663 C 681,663 738,677 782,705 826,732 848,771 848,820 848,869 826,907 782,934 738,960 681,973 612,973 L 370,973 Z M 186,1120 L 624,1120 C 755,1120 856,1096 927,1048 998,1000 1033,932 1033,843 1033,774 1015,720 979,680 943,639 890,614 819,604 904,588 969,555 1016,504 1063,453 1086,390 1086,314 1086,214 1048,137 971,82 894,27 784,0 641,0 L 186,0 186,1120 Z"
   id="glyph72" />
   <glyph
   unicode="б"
   horiz-adv-x="1060"
   d="M 637,1147 C 797,1147 923,1095 1014,991 1105,887 1151,743 1151,559 1151,376 1105,232 1014,128 923,23 797,-29 637,-29 476,-29 352,22 263,123 174,224 128,370 123,559 L 117,789 C 114,868 112,921 112,949 112,1055 131,1148 170,1227 231,1350 314,1439 419,1492 524,1545 664,1572 840,1572 921,1572 980,1578 1016,1591 L 1067,1445 C 1034,1426 1003,1416 973,1416 L 723,1416 C 639,1410 572,1392 521,1362 388,1282 316,1190 303,1085 L 296,1028 C 383,1107 496,1147 637,1147 Z M 637,991 C 538,991 460,953 403,876 346,799 317,693 317,559 317,425 346,320 403,243 460,166 538,127 637,127 735,127 813,166 870,243 927,320 956,426 956,559 956,692 927,797 870,875 813,952 735,991 637,991 Z"
   id="glyph74" />
   <glyph
   unicode="а"
   horiz-adv-x="953"
   d="M 702,563 C 553,563 450,546 393,512 336,478 307,420 307,338 307,273 329,221 372,183 415,144 473,125 547,125 649,125 731,161 793,234 854,306 885,402 885,522 L 885,563 702,563 Z M 1069,639 L 1069,0 885,0 885,170 C 843,102 791,52 728,20 665,-13 589,-29 498,-29 383,-29 292,3 225,68 157,132 123,218 123,326 123,452 165,547 250,611 334,675 460,707 627,707 L 885,707 885,725 C 885,810 857,875 802,922 746,968 668,991 567,991 503,991 441,983 380,968 319,953 261,930 205,899 L 205,1069 C 272,1095 338,1115 401,1128 464,1141 526,1147 586,1147 748,1147 869,1105 949,1021 1029,937 1069,810 1069,639 Z"
   id="glyph76" />
   <glyph
   unicode="Я"
   horiz-adv-x="1086"
   d="M 411,1063 C 411,976 436,910 486,865 535,820 609,797 706,797 L 1020,797 1020,1327 706,1327 C 609,1327 535,1305 486,1261 436,1216 411,1150 411,1063 Z M 136,0 L 544,653 C 477,670 401,707 316,764 231,820 188,920 188,1063 188,1200 231,1306 318,1381 405,1456 534,1493 706,1493 L 1222,1493 1222,0 1020,0 1020,631 750,631 356,0 136,0 Z"
   id="glyph78" />
   <glyph
   unicode="Ы"
   horiz-adv-x="1404"
   d="M 1047,439 C 1047,532 1021,601 968,646 916,691 836,713 727,713 L 403,713 403,166 727,166 C 836,166 916,189 968,234 1021,279 1047,347 1047,439 Z M 201,1493 L 403,1493 403,879 737,879 C 904,879 1033,843 1124,770 1215,697 1260,587 1260,439 1260,292 1215,182 1124,109 1033,36 904,0 737,0 L 201,0 201,1493 Z M 1404,1493 L 1606,1493 1606,0 1404,0 1404,1493 Z"
   id="glyph80" />
   <glyph
   unicode="Ф"
   horiz-adv-x="1483"
   d="M 781,1186 C 636,1173 526,1132 449,1064 372,996 334,896 334,765 334,634 372,534 449,467 526,399 636,358 781,345 L 781,1186 Z M 984,345 C 1129,358 1239,399 1315,467 1391,534 1429,634 1429,765 1429,896 1391,996 1315,1064 1239,1132 1129,1173 984,1186 L 984,345 Z M 781,178 C 570,193 407,251 293,351 178,450 121,588 121,765 121,942 178,1080 293,1181 407,1281 570,1339 781,1354 L 781,1493 984,1493 984,1354 C 1195,1339 1358,1281 1472,1182 1585,1082 1642,943 1642,765 1642,588 1585,450 1472,351 1358,251 1195,193 984,178 L 984,0 781,0 781,178 Z"
   id="glyph82" />
   <glyph
   unicode="Т"
   horiz-adv-x="1271"
   d="M -6,1493 L 1257,1493 1257,1323 727,1323 727,0 524,0 524,1323 -6,1323 -6,1493 Z"
   id="glyph84" />
   <glyph
   unicode="С"
   horiz-adv-x="1191"
   d="M 1319,1378 L 1319,1165 C 1251,1228 1179,1276 1102,1307 1025,1338 943,1354 856,1354 685,1354 555,1302 464,1198 373,1093 328,942 328,745 328,548 373,398 464,294 555,189 685,137 856,137 943,137 1025,153 1102,184 1179,215 1251,263 1319,326 L 1319,115 C 1248,67 1174,31 1095,7 1016,-17 932,-29 844,-29 618,-29 440,40 310,179 180,317 115,506 115,745 115,985 180,1174 310,1313 440,1451 618,1520 844,1520 933,1520 1018,1508 1097,1485 1176,1461 1250,1425 1319,1378 Z"
   id="glyph86" />
   <glyph
   unicode="Р"
   horiz-adv-x="954"
   d="M 403,1327 L 403,766 657,766 C 751,766 824,790 875,839 926,888 952,957 952,1047 952,1136 926,1205 875,1254 824,1303 751,1327 657,1327 L 403,1327 Z M 201,1493 L 657,1493 C 824,1493 951,1455 1037,1380 1122,1304 1165,1193 1165,1047 1165,900 1122,788 1037,713 951,638 824,600 657,600 L 403,600 403,0 201,0 201,1493 Z"
   id="glyph88" />
   <glyph
   unicode="П"
   horiz-adv-x="1139"
   d="M 1339,1493 L 1339,0 1137,0 1137,1323 403,1323 403,0 201,0 201,1493 1339,1493 Z"
   id="glyph90" />
   <glyph
   unicode="О"
   horiz-adv-x="1377"
   d="M 807,1356 C 660,1356 544,1301 458,1192 371,1083 328,934 328,745 328,557 371,408 458,299 544,190 660,135 807,135 954,135 1070,190 1156,299 1241,408 1284,557 1284,745 1284,934 1241,1083 1156,1192 1070,1301 954,1356 807,1356 Z M 807,1520 C 1016,1520 1184,1450 1309,1310 1434,1169 1497,981 1497,745 1497,510 1434,322 1309,182 1184,41 1016,-29 807,-29 597,-29 429,41 304,181 178,321 115,509 115,745 115,981 178,1169 304,1310 429,1450 597,1520 807,1520 Z"
   id="glyph92" />
   <glyph
   unicode="Н"
   horiz-adv-x="1139"
   d="M 201,1493 L 403,1493 403,881 1137,881 1137,1493 1339,1493 1339,0 1137,0 1137,711 403,711 403,0 201,0 201,1493 Z"
   id="glyph94" />
   <glyph
   unicode="М"
   horiz-adv-x="1351"
   d="M 201,1493 L 502,1493 883,477 1266,1493 1567,1493 1567,0 1370,0 1370,1311 985,287 782,287 397,1311 397,0 201,0 201,1493 Z"
   id="glyph96" />
   <glyph
   unicode="Л"
   horiz-adv-x="1245"
   d="M 84,0 L 84,170 C 229,201 322,272 363,381 421,553 450,839 450,1239 L 450,1493 1338,1493 1338,0 1136,0 1136,1323 651,1323 651,1139 C 651,762 617,485 549,309 484,140 329,37 84,0 Z"
   id="glyph98" />
   <glyph
   unicode="К"
   horiz-adv-x="1218"
   d="M 201,1493 L 403,1493 403,755 1125,1493 1384,1493 807,903 1414,0 1194,0 676,769 403,490 403,0 201,0 201,1493 Z"
   id="glyph100" />
   <glyph
   unicode="И"
   horiz-adv-x="1112"
   d="M 1331,1493 L 1331,0 1135,0 1135,1249 473,0 201,0 201,1493 397,1493 397,244 1059,1493 1331,1493 Z"
   id="glyph102" />
   <glyph
   unicode="З"
   horiz-adv-x="1033"
   d="M 585,1520 C 749,1520 883,1485 987,1416 1091,1346 1143,1252 1143,1133 1143,1050 1119,981 1072,924 1025,867 957,827 870,805 967,784 1042,741 1097,676 1151,611 1178,530 1178,434 1178,281 1119,165 1001,88 882,10 744,-29 585,-29 504,-29 416,-18 321,4 226,26 164,46 135,65 L 135,273 C 237,214 316,177 373,163 429,148 498,141 581,141 706,141 804,165 873,213 942,261 977,335 977,434 977,522 946,591 885,641 823,690 727,715 597,715 L 393,715 393,881 605,881 C 724,881 810,901 863,941 916,980 942,1037 942,1112 942,1189 915,1248 861,1289 806,1330 713,1350 581,1350 492,1350 432,1346 401,1338 370,1330 287,1300 150,1249 L 150,1446 C 225,1473 302,1492 381,1503 460,1514 528,1520 585,1520 Z"
   id="glyph104" />
   <glyph
   unicode="Е"
   horiz-adv-x="954"
   d="M 201,1493 L 1145,1493 1145,1323 403,1323 403,881 1114,881 1114,711 403,711 403,170 1163,170 1163,0 201,0 201,1493 Z"
   id="glyph106" />
   <glyph
   unicode="Д"
   horiz-adv-x="1403"
   d="M 467,170 L 1127,170 1127,1323 642,1323 642,1111 C 642,778 605,502 530,281 515,236 494,199 467,170 Z M 172,170 C 261,212 319,273 344,353 409,558 441,844 441,1211 L 441,1493 1329,1493 1329,170 1499,170 1499,-321 1329,-321 1329,0 271,0 271,-321 101,-321 101,170 172,170 Z"
   id="glyph108" />
   <glyph
   unicode="Г"
   horiz-adv-x="927"
   d="M 201,0 L 201,1493 1130,1493 1130,1323 403,1323 403,0 201,0 Z"
   id="glyph110" />
   <glyph
   unicode="В"
   horiz-adv-x="1060"
   d="M 403,713 L 403,166 727,166 C 836,166 916,189 969,234 1021,279 1047,347 1047,440 1047,533 1021,602 969,647 916,691 836,713 727,713 L 403,713 Z M 403,1327 L 403,877 702,877 C 801,877 874,896 923,933 971,970 995,1026 995,1102 995,1177 971,1234 923,1271 874,1308 801,1327 702,1327 L 403,1327 Z M 201,1493 L 717,1493 C 871,1493 990,1461 1073,1397 1156,1333 1198,1242 1198,1124 1198,1033 1177,960 1134,906 1091,852 1029,818 946,805 1045,784 1123,739 1178,672 1233,604 1260,519 1260,418 1260,285 1215,182 1124,109 1033,36 904,0 737,0 L 201,0 201,1493 Z"
   id="glyph112" />
   <glyph
   unicode="А"
   horiz-adv-x="1351"
   d="M 700,1294 L 426,551 975,551 700,1294 Z M 586,1493 L 815,1493 1384,0 1174,0 1038,383 365,383 229,0 16,0 586,1493 Z"
   id="glyph114" />
   <glyph
   unicode="»"
   horiz-adv-x="927"
   d="M 193,1059 L 662,641 662,559 193,141 193,332 494,600 193,868 193,1059 Z M 627,1059 L 1096,641 1096,559 627,141 627,332 928,600 627,868 627,1059 Z"
   id="glyph116" />
   <glyph
   unicode="«"
   horiz-adv-x="927"
   d="M 1061,1059 L 1061,868 760,600 1061,332 1061,141 592,559 592,641 1061,1059 Z M 627,1059 L 627,868 326,600 627,332 627,141 158,559 158,641 627,1059 Z"
   id="glyph118" />
   <glyph
   unicode="y"
   horiz-adv-x="1086"
   d="M 659,-104 C 607,-237 556,-324 507,-365 458,-406 392,-426 309,-426 L 162,-426 162,-272 270,-272 C 321,-272 360,-260 388,-236 416,-212 447,-155 481,-66 L 514,18 61,1120 256,1120 606,244 956,1120 1151,1120 659,-104 Z"
   id="glyph120" />
   <glyph
   unicode="u"
   horiz-adv-x="927"
   d="M 174,442 L 174,1120 358,1120 358,449 C 358,343 379,264 420,211 461,158 523,131 606,131 705,131 784,163 842,226 899,289 928,376 928,485 L 928,1120 1112,1120 1112,0 928,0 928,172 C 883,104 832,54 773,21 714,-12 645,-29 567,-29 438,-29 341,11 274,91 207,171 174,288 174,442 Z "
   id="glyph122" />
   <glyph
   unicode="t"
   horiz-adv-x="689"
   d="M 375,1438 L 375,1120 754,1120 754,977 375,977 375,369 C 375,278 388,219 413,193 438,167 488,154 565,154 L 754,154 754,0 565,0 C 423,0 325,27 271,80 217,133 190,229 190,369 L 190,977 55,977 55,1120 190,1120 190,1438 375,1438 Z"
   id="glyph124" />
   <glyph
   unicode="s"
   horiz-adv-x="848"
   d="M 907,1087 L 907,913 C 855,940 801,960 745,973 689,986 631,993 571,993 480,993 411,979 366,951 320,923 297,881 297,825 297,782 313,749 346,725 379,700 444,677 543,655 L 606,641 C 737,613 830,574 885,523 940,472 967,400 967,309 967,205 926,123 844,62 761,1 648,-29 504,-29 444,-29 382,-23 317,-12 252,0 183,18 111,41 L 111,231 C 179,196 246,169 312,152 378,134 443,125 508,125 595,125 661,140 708,170 755,199 778,241 778,295 778,345 761,383 728,410 694,437 620,462 506,487 L 442,502 C 328,526 246,563 195,613 144,662 119,730 119,817 119,922 156,1004 231,1061 306,1118 412,1147 549,1147 617,1147 681,1142 741,1132 801,1122 856,1107 907,1087 Z"
   id="glyph126" />
   <glyph
   unicode="r"
   horiz-adv-x="663"
   d="M 842,948 C 821,960 799,969 775,975 750,980 723,983 694,983 590,983 510,949 455,882 399,814 371,717 371,590 L 371,0 186,0 186,1120 371,1120 371,946 C 410,1014 460,1065 522,1098 584,1131 659,1147 748,1147 761,1147 775,1146 790,1145 805,1143 822,1140 841,1137 L 842,948 Z"
   id="glyph128" />
   <glyph
   unicode="p"
   horiz-adv-x="1007"
   d="M 371,168 L 371,-426 186,-426 186,1120 371,1120 371,950 C 410,1017 459,1066 518,1099 577,1131 647,1147 729,1147 865,1147 976,1093 1061,985 1146,877 1188,735 1188,559 1188,383 1146,241 1061,133 976,25 865,-29 729,-29 647,-29 577,-13 518,20 459,52 410,101 371,168 Z M 997,559 C 997,694 969,801 914,878 858,955 781,993 684,993 587,993 510,955 455,878 399,801 371,694 371,559 371,424 399,318 455,241 510,164 587,125 684,125 781,125 858,164 914,241 969,318 997,424 997,559 Z"
   id="glyph130" />
   <glyph
   unicode="o"
   horiz-adv-x="1033"
   d="M 627,991 C 528,991 450,953 393,876 336,799 307,693 307,559 307,425 336,320 393,243 450,166 528,127 627,127 725,127 803,166 860,243 917,320 946,426 946,559 946,692 917,797 860,875 803,952 725,991 627,991 Z M 627,1147 C 787,1147 913,1095 1004,991 1095,887 1141,743 1141,559 1141,376 1095,232 1004,128 913,23 787,-29 627,-29 466,-29 341,23 250,128 159,232 113,376 113,559 113,743 159,887 250,991 341,1095 466,1147 627,1147 Z"
   id="glyph132" />
   <glyph
   unicode="n"
   horiz-adv-x="927"
   d="M 1124,676 L 1124,0 940,0 940,670 C 940,776 919,855 878,908 837,961 775,987 692,987 593,987 514,955 457,892 400,829 371,742 371,633 L 371,0 186,0 186,1120 371,1120 371,946 C 415,1013 467,1064 527,1097 586,1130 655,1147 733,1147 862,1147 959,1107 1025,1028 1091,948 1124,831 1124,676 Z"
   id="glyph134" />
   <glyph
   unicode="m"
   horiz-adv-x="1615"
   d="M 1065,905 C 1111,988 1166,1049 1230,1088 1294,1127 1369,1147 1456,1147 1573,1147 1663,1106 1726,1025 1789,943 1821,827 1821,676 L 1821,0 1636,0 1636,670 C 1636,777 1617,857 1579,909 1541,961 1483,987 1405,987 1310,987 1234,955 1179,892 1124,829 1096,742 1096,633 L 1096,0 911,0 911,670 C 911,778 892,858 854,910 816,961 757,987 678,987 584,987 509,955 454,892 399,828 371,742 371,633 L 371,0 186,0 186,1120 371,1120 371,946 C 413,1015 463,1065 522,1098 581,1131 650,1147 731,1147 812,1147 882,1126 939,1085 996,1044 1038,984 1065,905 Z"
   id="glyph136" />
   <glyph
   unicode="l"
   horiz-adv-x="186"
   d="M 193,1556 L 377,1556 377,0 193,0 193,1556 Z"
   id="glyph138" />
   <glyph
   unicode="k"
   horiz-adv-x="980"
   d="M 186,1556 L 371,1556 371,637 920,1120 1155,1120 561,596 1180,0 940,0 371,547 371,0 186,0 186,1556 Z"
   id="glyph140" />
   <glyph
   unicode="i"
   horiz-adv-x="186"
   d="M 193,1120 L 377,1120 377,0 193,0 193,1120 Z M 193,1556 L 377,1556 377,1323 193,1323 193,1556 Z"
   id="glyph142" />
   <glyph
   unicode="h"
   horiz-adv-x="927"
   d="M 1124,676 L 1124,0 940,0 940,670 C 940,776 919,855 878,908 837,961 775,987 692,987 593,987 514,955 457,892 400,829 371,742 371,633 L 371,0 186,0 186,1556 371,1556 371,946 C 415,1013 467,1064 527,1097 586,1130 655,1147 733,1147 862,1147 959,1107 1025,1028 1091,948 1124,831 1124,676 Z"
   id="glyph144" />
   <glyph
   unicode="g"
   horiz-adv-x="1006"
   d="M 930,573 C 930,706 903,810 848,883 793,956 715,993 616,993 517,993 441,956 386,883 331,810 303,706 303,573 303,440 331,337 386,264 441,191 517,154 616,154 715,154 793,191 848,264 903,337 930,440 930,573 Z M 1114,139 C 1114,-52 1072,-193 987,-287 902,-379 773,-426 598,-426 533,-426 472,-421 415,-412 358,-402 302,-387 248,-367 L 248,-188 C 302,-217 355,-239 408,-253 461,-267 514,-274 569,-274 690,-274 780,-242 840,-180 900,-116 930,-21 930,106 L 930,197 C 892,131 843,82 784,49 725,16 654,0 571,0 434,0 323,52 239,157 155,262 113,400 113,573 113,746 155,885 239,990 323,1095 434,1147 571,1147 654,1147 725,1131 784,1098 843,1065 892,1016 930,950 L 930,1120 1114,1120 1114,139 Z"
   id="glyph146" />
   <glyph
   unicode="e"
   horiz-adv-x="1033"
   d="M 1151,606 L 1151,516 305,516 C 313,389 351,293 420,227 488,160 583,127 705,127 776,127 844,136 911,153 977,170 1043,196 1108,231 L 1108,57 C 1042,29 974,8 905,-7 836,-22 765,-29 694,-29 515,-29 374,23 270,127 165,231 113,372 113,549 113,732 163,878 262,986 361,1093 494,1147 662,1147 813,1147 932,1099 1020,1002 1107,905 1151,773 1151,606 Z M 967,659 C 966,760 938,841 883,901 828,961 755,991 664,991 561,991 479,962 418,904 356,846 320,764 311,659 L 967,659 Z"
   id="glyph148" />
   <glyph
   unicode="c"
   horiz-adv-x="874"
   d="M 999,1077 L 999,905 C 947,934 895,955 843,970 790,984 737,991 684,991 565,991 472,953 406,878 340,802 307,696 307,559 307,422 340,316 406,241 472,165 565,127 684,127 737,127 790,134 843,149 895,163 947,184 999,213 L 999,43 C 948,19 895,1 840,-11 785,-23 726,-29 664,-29 495,-29 361,24 262,130 163,236 113,379 113,559 113,742 163,885 264,990 364,1095 501,1147 676,1147 733,1147 788,1141 842,1130 896,1118 948,1100 999,1077 Z"
   id="glyph150" />
   <glyph
   unicode="b"
   horiz-adv-x="1007"
   d="M 997,559 C 997,694 969,801 914,878 858,955 781,993 684,993 587,993 510,955 455,878 399,801 371,694 371,559 371,424 399,318 455,241 510,164 587,125 684,125 781,125 858,164 914,241 969,318 997,424 997,559 Z M 371,950 C 410,1017 459,1066 518,1099 577,1131 647,1147 729,1147 865,1147 976,1093 1061,985 1146,877 1188,735 1188,559 1188,383 1146,241 1061,133 976,25 865,-29 729,-29 647,-29 577,-13 518,20 459,52 410,101 371,168 L 371,0 186,0 186,1556 371,1556 371,950 Z"
   id="glyph152" />
   <glyph
   unicode="a"
   horiz-adv-x="953"
   d="M 702,563 C 553,563 450,546 393,512 336,478 307,420 307,338 307,273 329,221 372,183 415,144 473,125 547,125 649,125 731,161 793,234 854,306 885,402 885,522 L 885,563 702,563 Z M 1069,639 L 1069,0 885,0 885,170 C 843,102 791,52 728,20 665,-13 589,-29 498,-29 383,-29 292,3 225,68 157,132 123,218 123,326 123,452 165,547 250,611 334,675 460,707 627,707 L 885,707 885,725 C 885,810 857,875 802,922 746,968 668,991 567,991 503,991 441,983 380,968 319,953 261,930 205,899 L 205,1069 C 272,1095 338,1115 401,1128 464,1141 526,1147 586,1147 748,1147 869,1105 949,1021 1029,937 1069,810 1069,639 Z"
   id="glyph154" />
   <glyph
   unicode="X"
   horiz-adv-x="1271"
   d="M 129,1493 L 346,1493 717,938 1090,1493 1307,1493 827,776 1339,0 1122,0 702,635 279,0 61,0 594,797 129,1493 Z"
   id="glyph156" />
   <glyph
   unicode="V"
   horiz-adv-x="1351"
   d="M 586,0 L 16,1493 227,1493 700,236 1174,1493 1384,1493 815,0 586,0 Z"
   id="glyph158" />
   <glyph
   unicode="L"
   horiz-adv-x="927"
   d="M 201,1493 L 403,1493 403,170 1130,170 1130,0 201,0 201,1493 Z"
   id="glyph160" />
   <glyph
   unicode="I"
   horiz-adv-x="213"
   d="M 201,1493 L 403,1493 403,0 201,0 201,1493 Z"
   id="glyph162" />
   <glyph
   unicode="F"
   horiz-adv-x="848"
   d="M 201,1493 L 1059,1493 1059,1323 403,1323 403,883 995,883 995,713 403,713 403,0 201,0 201,1493 Z"
   id="glyph164" />
   <glyph
   unicode="E"
   horiz-adv-x="954"
   d="M 201,1493 L 1145,1493 1145,1323 403,1323 403,881 1114,881 1114,711 403,711 403,170 1163,170 1163,0 201,0 201,1493 Z"
   id="glyph166" />
   <glyph
   unicode="9"
   horiz-adv-x="1033"
   d="M 225,31 L 225,215 C 276,191 327,173 379,160 431,147 482,141 532,141 665,141 767,186 838,276 908,365 948,501 958,684 919,627 870,583 811,552 752,521 686,506 614,506 465,506 347,551 260,642 173,732 129,855 129,1012 129,1165 174,1288 265,1381 356,1474 476,1520 627,1520 800,1520 932,1454 1023,1322 1114,1189 1159,997 1159,745 1159,510 1103,322 992,182 880,41 730,-29 541,-29 490,-29 439,-24 387,-14 335,-4 281,11 225,31 Z M 627,664 C 718,664 790,695 843,757 896,819 922,904 922,1012 922,1119 896,1204 843,1267 790,1329 718,1360 627,1360 536,1360 465,1329 412,1267 359,1204 332,1119 332,1012 332,904 359,819 412,757 465,695 536,664 627,664 Z"
   id="glyph168" />
   <glyph
   unicode="8"
   horiz-adv-x="1033"
   d="M 651,709 C 555,709 480,683 425,632 370,581 342,510 342,420 342,330 370,259 425,208 480,157 555,131 651,131 747,131 823,157 878,209 933,260 961,331 961,420 961,510 934,581 879,632 824,683 748,709 651,709 Z M 449,795 C 362,816 295,857 247,916 198,975 174,1048 174,1133 174,1252 217,1347 302,1416 387,1485 503,1520 651,1520 800,1520 916,1485 1001,1416 1086,1347 1128,1252 1128,1133 1128,1048 1104,975 1056,916 1007,857 940,816 854,795 951,772 1027,728 1082,662 1136,596 1163,515 1163,420 1163,275 1119,164 1031,87 942,10 816,-29 651,-29 486,-29 360,10 272,87 183,164 139,275 139,420 139,515 166,596 221,662 276,728 352,772 449,795 Z M 375,1114 C 375,1037 399,976 448,933 496,890 564,868 651,868 738,868 806,890 855,933 904,976 928,1037 928,1114 928,1191 904,1252 855,1295 806,1338 738,1360 651,1360 564,1360 496,1338 448,1295 399,1252 375,1191 375,1114 Z"
   id="glyph170" />
   <glyph
   unicode="7"
   horiz-adv-x="953"
   d="M 168,1493 L 1128,1493 1128,1407 586,0 375,0 885,1323 168,1323 168,1493 Z"
   id="glyph172" />
   <glyph
   unicode="6"
   horiz-adv-x="1033"
   d="M 676,827 C 585,827 514,796 461,734 408,672 381,587 381,479 381,372 408,287 461,225 514,162 585,131 676,131 767,131 839,162 892,225 945,287 971,372 971,479 971,587 945,672 892,734 839,796 767,827 676,827 Z M 1077,1460 L 1077,1276 C 1026,1300 975,1318 924,1331 872,1344 821,1350 770,1350 637,1350 535,1305 465,1215 394,1125 354,989 344,807 383,865 433,910 492,941 551,972 617,987 688,987 838,987 957,942 1044,851 1131,760 1174,636 1174,479 1174,326 1129,203 1038,110 947,17 827,-29 676,-29 503,-29 371,37 280,170 189,302 143,494 143,745 143,981 199,1169 311,1310 423,1450 573,1520 762,1520 813,1520 864,1515 916,1505 967,1495 1021,1480 1077,1460 Z"
   id="glyph174" />
   <glyph
   unicode="5"
   horiz-adv-x="953"
   d="M 221,1493 L 1014,1493 1014,1323 406,1323 406,957 C 435,967 465,975 494,980 523,985 553,987 582,987 749,987 881,941 978,850 1075,759 1124,635 1124,479 1124,318 1074,194 974,105 874,16 733,-29 551,-29 488,-29 425,-24 360,-13 295,-2 227,14 158,35 L 158,238 C 218,205 280,181 344,165 408,149 476,141 547,141 662,141 754,171 821,232 888,293 922,375 922,479 922,583 888,665 821,726 754,787 662,817 547,817 493,817 439,811 386,799 332,787 277,768 221,743 L 221,1493 Z"
   id="glyph176" />
   <glyph
   unicode="4"
   horiz-adv-x="1086"
   d="M 774,1317 L 264,520 774,520 774,1317 Z M 721,1493 L 975,1493 975,520 1188,520 1188,352 975,352 975,0 774,0 774,352 100,352 100,547 721,1493 Z"
   id="glyph178" />
   <glyph
   unicode="3"
   horiz-adv-x="980"
   d="M 831,805 C 928,784 1003,741 1058,676 1112,611 1139,530 1139,434 1139,287 1088,173 987,92 886,11 742,-29 555,-29 492,-29 428,-23 362,-11 295,2 227,20 156,45 L 156,240 C 212,207 273,183 340,166 407,149 476,141 549,141 676,141 772,166 839,216 905,266 938,339 938,434 938,522 907,591 846,641 784,690 698,715 588,715 L 414,715 414,881 596,881 C 695,881 771,901 824,941 877,980 903,1037 903,1112 903,1189 876,1248 822,1289 767,1330 689,1350 588,1350 533,1350 473,1344 410,1332 347,1320 277,1301 201,1276 L 201,1456 C 278,1477 350,1493 417,1504 484,1515 547,1520 606,1520 759,1520 881,1485 970,1416 1059,1346 1104,1252 1104,1133 1104,1050 1080,981 1033,924 986,867 918,827 831,805 Z"
   id="glyph180" />
   <glyph
   unicode="2"
   horiz-adv-x="953"
   d="M 393,170 L 1098,170 1098,0 150,0 150,170 C 227,249 331,356 464,490 596,623 679,709 713,748 778,821 823,882 849,933 874,983 887,1032 887,1081 887,1160 859,1225 804,1275 748,1325 675,1350 586,1350 523,1350 456,1339 386,1317 315,1295 240,1262 160,1217 L 160,1421 C 241,1454 317,1478 388,1495 459,1512 523,1520 582,1520 737,1520 860,1481 952,1404 1044,1327 1090,1223 1090,1094 1090,1033 1079,975 1056,920 1033,865 991,800 930,725 913,706 860,650 771,558 682,465 556,336 393,170 Z"
   id="glyph182" />
   <glyph
   unicode="1"
   horiz-adv-x="900"
   d="M 254,170 L 584,170 584,1309 225,1237 225,1421 582,1493 784,1493 784,170 1114,170 1114,0 254,0 254,170 Z"
   id="glyph184" />
   <glyph
   unicode="0"
   horiz-adv-x="1033"
   d="M 651,1360 C 547,1360 469,1309 417,1207 364,1104 338,950 338,745 338,540 364,387 417,285 469,182 547,131 651,131 756,131 834,182 887,285 939,387 965,540 965,745 965,950 939,1104 887,1207 834,1309 756,1360 651,1360 Z M 651,1520 C 818,1520 946,1454 1035,1322 1123,1189 1167,997 1167,745 1167,494 1123,302 1035,170 946,37 818,-29 651,-29 484,-29 356,37 268,170 179,302 135,494 135,745 135,997 179,1189 268,1322 356,1454 484,1520 651,1520 Z"
   id="glyph186" />
   <glyph
   unicode="."
   horiz-adv-x="213"
   d="M 219,254 L 430,254 430,0 219,0 219,254 Z"
   id="glyph188" />
   <glyph
   unicode="-"
   horiz-adv-x="530"
   d="M 100,643 L 639,643 639,479 100,479 100,643 Z"
   id="glyph190" />
   <glyph
   unicode=","
   horiz-adv-x="292"
   d="M 240,254 L 451,254 451,82 287,-238 158,-238 240,82 240,254 Z"
   id="glyph192" />
   <glyph
   unicode="+"
   horiz-adv-x="1271"
   d="M 942,1284 L 942,727 1499,727 1499,557 942,557 942,0 774,0 774,557 217,557 217,727 774,727 774,1284 942,1284 Z"
   id="glyph194" />
   <glyph
   unicode=")"
   horiz-adv-x="451"
   d="M 164,1554 L 324,1554 C 424,1397 499,1243 549,1092 598,941 623,792 623,643 623,494 598,343 549,192 499,41 424,-113 324,-270 L 164,-270 C 253,-117 319,35 363,186 406,337 428,489 428,643 428,797 406,949 363,1099 319,1249 253,1401 164,1554 Z"
   id="glyph196" />
   <glyph
   unicode="("
   horiz-adv-x="451"
   d="M 635,1554 C 546,1401 479,1249 436,1099 393,949 371,797 371,643 371,489 393,337 437,186 480,35 546,-117 635,-270 L 475,-270 C 375,-113 300,41 251,192 201,343 176,494 176,643 176,792 201,941 250,1092 299,1243 374,1397 475,1554 L 635,1554 Z"
   id="glyph198" />
   <glyph
   unicode="&quot;"
   horiz-adv-x="530"
   d="M 367,1493 L 367,938 197,938 197,1493 367,1493 Z M 745,1493 L 745,938 575,938 575,1493 745,1493 Z"
   id="glyph200" />
   <glyph
   unicode="!"
   horiz-adv-x="212"
   d="M 309,254 L 512,254 512,0 309,0 309,254 Z M 309,1493 L 512,1493 512,838 492,481 330,481 309,838 309,1493 Z"
   id="glyph202" />
   <glyph
   unicode=" "
   horiz-adv-x="635"
   id="glyph204" />
  </font>
</defs>
</svg>
